<?xml version="1.0" standalone="no"?>
<!DOCTYPE svg PUBLIC "-//W3C//DTD SVG 1.1//EN" "http://www.w3.org/Graphics/SVG/1.1/DTD/svg11.dtd">
<svg xmlns="http://www.w3.org/2000/svg">
<defs >
<font id="Poppins" horiz-adv-x="896" ><font-face
    font-family="Poppins Black"
    units-per-em="1000"
    panose-1="0 0 10 0 0 0 0 0 0 0"
    ascent="1050"
    descent="-350"
    alphabetic="0" />
<glyph unicode=" " glyph-name="space" horiz-adv-x="170" />
<glyph unicode="!" glyph-name="exclam" horiz-adv-x="435" d="M417 755L307 281H117L175 755H417ZM310 212L272 0H52L90 212H310Z" />
<glyph unicode="&quot;" glyph-name="quotedbl" horiz-adv-x="490" d="M241 803L186 568H38L66 803H241ZM466 803L411 568H263L291 803H466Z" />
<glyph unicode="#" glyph-name="numbersign" horiz-adv-x="933" d="M774 421L737 326H847L812 124H658L610 0H404L452 124H313L265 0H60L108 124H-33L2 326H187L224 421H87L123 623H302L348 740H553L507 623H646L692 740H898L852 623H968L932 421H774ZM568 421H429L392
326H531L568 421Z" />
<glyph unicode="$" glyph-name="dollar" horiz-adv-x="665" d="M410 491Q413 533 388 546L371 447L407 435Q472 414 513 395T585 340T615 248Q615 237 611 209Q600 149 559 100T448 22T291 -7L277 -87H226L240 -5Q133 4 70 55T7 197Q7 207 9 227H245Q241 183 271
168L288 267L266 273Q200 292 158 310T84 366T52 462Q52 484 56 504Q68 570 113 617T224 691T368 720L382 800H433L419 719Q530 713 590 662T651 521Q651 511 649 491H410ZM291 487T323 467L338 551Q300 546 296 514Q291 487 323 467ZM376 219T367 230T336 251L321
161Q342 163 356 174T373 204Q376 219 367 230Z" />
<glyph unicode="%" glyph-name="percent" d="M334 721T375 686T417 582Q417 560 413 540Q397 452 340 406T202 360Q132 360 91 395T49 497Q49 520 53 540Q68 628 126 674T265 721Q334 721 375 686ZM804 711L305 0H93L592 711H804ZM196 526T196 521Q196 489 223
489Q241 489 253 502T269 540Q271 552 271 557Q271 592 241 592Q207 592 198 540Q196 526 196 521ZM766 352T806 317T847 215Q847 192 843 171Q828 83 771 37T633 -10Q564 -10 522 25T480 129Q480 151 484 171Q500 259 558 305T696 352Q766 352 806 317ZM626 157T626
152Q626 119 654 119Q671 119 683 132T699 171Q701 185 701 189Q701 223 673 223Q656 223 644 210T628 171Q626 157 626 152Z" />
<glyph unicode="&amp;" glyph-name="ampersand" horiz-adv-x="700" d="M417 0L386 56Q368 41 349 31Q281 -7 200 -7Q100 -7 49 43T-3 173Q-3 198 1 218Q15 297 64 352T180 426Q172 444 170 454Q166 480 166 494Q166 507 170 537Q178 584 211 624T299 690T425 715Q519
715 565 680T625 584Q629 558 629 542Q629 506 619 464H413Q418 491 418 505Q418 519 413 525T396 532Q386 532 380 525T373 506Q373 494 386 468L638 0H417ZM296 250T284 260T251 270Q225 270 208 255T190 215Q190 197 202 187T235 176Q261 176 278 192T296 233Q296
250 284 260Z" />
<glyph unicode="&apos;" glyph-name="quotesingle" horiz-adv-x="265" d="M241 803L186 568H38L66 803H241Z" />
<glyph unicode="(" glyph-name="parenleft" horiz-adv-x="429" d="M47 590T150 743T395 993H609L606 972Q445 854 351 714T227 402Q215 333 215 268Q215 142 262 34T404 -169L401 -189H187Q101 -113 51 1T1 258Q1 330 14 402Q47 590 150 743Z" />
<glyph unicode=")" glyph-name="parenright" horiz-adv-x="432" d="M384 213T281 60T37 -189H-178L-175 -169Q-13 -51 81 90T205 402Q217 471 217 535Q217 661 170 769T27 972L30 993H245Q331 917 381 802T431 546Q431 475 418 403Q384 213 281 60Z" />
<glyph unicode="*" glyph-name="asterisk" horiz-adv-x="561" d="M448 709L493 588L376 552L481 518L386 391L314 477L321 360H182L231 477L130 390L78 519L196 555L92 587L181 708L258 625L248 744H390L340 625L448 709Z" />
<glyph unicode="+" glyph-name="plus" horiz-adv-x="551" d="M513 238H364L337 85H124L151 238H2L38 441H187L214 595H427L400 441H549L513 238Z" />
<glyph unicode="," glyph-name="comma" horiz-adv-x="276" d="M245 87T245 30Q245 -30 222 -85T150 -175T27 -210L41 -132Q69 -132 84 -120T106 -72L108 -61H21L55 131H226Q245 87 245 30Z" />
<glyph unicode="-" glyph-name="hyphen" horiz-adv-x="576" d="M557 433L525 250H59L91 433H557Z" />
<glyph unicode="." glyph-name="period" horiz-adv-x="277" d="M267 212L229 0H9L47 212H267Z" />
<glyph unicode="/" glyph-name="slash" horiz-adv-x="399" d="M544 955L75 -198H-138L332 955H544Z" />
<glyph unicode="0" glyph-name="zero" horiz-adv-x="662" d="M22 301T22 259Q22 139 82 72T269 4Q421 4 512 101T632 363Q642 423 642 466Q642 585 582 653T395 721Q243 721 152 624T32 363Q22 301 22 259ZM400 292T378 253T306 214Q271 214 257 234T242 291Q242
321 250 363Q263 434 285 472T358 511Q421 511 421 435Q421 403 413 363Q400 292 378 253Z" />
<glyph unicode="1" glyph-name="one" horiz-adv-x="399" d="M36 500L72 708H411L287 0H54L142 500H36Z" />
<glyph unicode="2" glyph-name="two" horiz-adv-x="566" d="M153 276T243 353T344 491Q345 497 345 508Q345 541 317 541Q297 541 286 524T266 458H51Q66 550 112 610T223 699T358 727Q473 727 525 678T577 550Q577 524 573 503Q557 412 480 331T294 189H523L492
10H-25L4 177Q153 276 243 353Z" />
<glyph unicode="3" glyph-name="three" horiz-adv-x="583" d="M471 747T527 699T583 572Q583 559 579 533Q567 468 528 431T443 380L442 376Q486 359 511 322T536 229Q536 204 532 181Q517 95 445 44T258 -7Q138 -7 74 45T10 204Q10 225 13 249H229Q224 229 224
218Q224 176 270 176Q288 176 302 187T319 216Q321 228 321 233Q321 282 249 282H212L244 461H280Q348 457 358 515Q359 520 359 529Q359 547 351 555T329 564Q292 564 281 502H65Q89 621 166 684T366 747Q471 747 527 699Z" />
<glyph unicode="4" glyph-name="four" horiz-adv-x="674" d="M8 110L41 295L413 720H652L579 302H651L617 110H545L526 0H302L321 110H8ZM402 467L265 302H373L402 467Z" />
<glyph unicode="5" glyph-name="five" horiz-adv-x="600" d="M584 536H294L279 452Q302 470 334 479T404 489Q490 489 532 440T575 310Q575 286 570 253Q549 133 470 67T273 0Q159 0 97 50T35 185Q35 206 40 234H256L255 225Q255 211 264 201T295 190Q320 190
335 208T356 257Q358 269 358 274Q358 295 347 305T314 316Q293 316 281 306T265 283H49L128 731H618L584 536Z" />
<glyph unicode="6" glyph-name="six" horiz-adv-x="611" d="M388 539T379 553T345 567Q307 567 288 529T255 409Q278 437 314 453T394 469Q476 469 523 424T570 293Q570 264 564 229Q545 120 470 57T283 -7Q153 -7 95 61T36 252Q36 307 49 380Q72 508 113 588T220
706T380 744Q493 744 545 689T597 546Q597 533 595 509H388Q388 539 379 553ZM238 205T251 194T289 183Q321 183 340 199T359 248Q359 272 346 285T309 299Q278 299 258 281T238 228Q238 205 251 194Z" />
<glyph unicode="7" glyph-name="seven" horiz-adv-x="502" d="M536 554L195 0H-33L306 527H50L83 717H565L536 554Z" />
<glyph unicode="8" glyph-name="eight" horiz-adv-x="626" d="M103 611T140 655T243 727T394 756Q471 756 523 731T600 664T625 575Q625 560 622 543Q606 452 511 402Q594 349 594 251Q594 230 589 200Q571 97 482 43T258 -11Q191 -11 137 11T50 79T18 188Q18
212 22 235Q32 291 64 332T153 402Q91 442 91 524Q91 542 94 563Q103 611 140 655ZM304 501T304 497Q304 477 314 467T341 456Q361 456 376 471T398 515Q399 520 399 530Q399 551 389 563T362 576Q342 576 326 560T306 515Q304 501 304 497ZM237 199T251 185T291
170Q326 170 347 194T369 253Q369 278 355 292T315 307Q281 307 259 283T237 223Q237 199 251 185Z" />
<glyph unicode="9" glyph-name="nine" horiz-adv-x="567" d="M228 199T238 185T273 170Q310 170 328 207T361 328Q338 300 302 284T222 268Q140 268 93 313T45 445Q45 475 51 508Q70 617 148 680T343 744Q472 744 527 682T583 503Q583 444 568 357Q546 233 512
155T415 35T252 -7Q168 -7 116 27T41 115T21 228H228Q228 199 238 185ZM377 532T364 543T327 554Q299 554 281 540T258 495Q257 490 257 482Q257 461 270 450T307 438Q337 438 357 457T377 510Q377 532 364 543Z" />
<glyph unicode=":" glyph-name="colon" horiz-adv-x="332" d="M335 603L298 391H78L115 603H335ZM266 212L229 0H9L46 212H266Z" />
<glyph unicode=";" glyph-name="semicolon" horiz-adv-x="433" d="M383 593L345 381H125L163 593H383ZM309 87T309 30Q309 -30 286 -85T214 -175T91 -210L105 -132Q133 -132 148 -120T170 -72L172 -61H85L119 131H290Q309 87 309 30Z" />
<glyph unicode="&lt;" glyph-name="less" horiz-adv-x="497" d="M162 125L20 340L238 556H515L297 340L439 125H162Z" />
<glyph unicode="=" glyph-name="equal" horiz-adv-x="626" d="M648 580L613 379H27L62 580H648ZM599 300L564 99H-22L13 300H599Z" />
<glyph unicode="&gt;" glyph-name="greater" horiz-adv-x="497" d="M58 556H335L477 340L259 125H-18L200 340L58 556Z" />
<glyph unicode="?" glyph-name="question" horiz-adv-x="538" d="M440 773T496 731T553 605Q553 585 548 557Q532 468 463 414T298 357L285 286H77L115 498H199Q259 498 292 511T331 556L332 564Q332 578 324 585T303 593Q284 593 273 581T257 548H48Q56 609 92
660T193 742T343 773Q440 773 496 731ZM279 212L242 0H22L59 212H279Z" />
<glyph unicode="@" glyph-name="at" horiz-adv-x="1353" d="M1092 843T1224 747T1356 466Q1356 420 1347 367Q1329 266 1265 180T1111 44T930 -6Q853 -6 806 26T752 121Q709 59 656 27T531 -6Q452 -6 406 41T360 172Q360 224 377 278Q402 362 460 428T600 530T772
567Q869 567 927 526T986 404Q986 370 974 326L954 258Q946 231 946 217Q946 201 954 194T980 187Q1007 187 1035 205T1086 262T1120 359Q1125 385 1125 419Q1125 533 1041 598T795 663Q644 663 528 606T341 449T248 227Q241 192 241 153Q241 31 326 -38T592 -106L519
-285Q274 -282 149 -177T24 115Q24 171 34 227Q69 423 193 562T494 772T861 843Q1092 843 1224 747ZM676 187T707 208T753 282Q759 300 759 321Q759 352 741 364T698 376Q666 376 635 355T589 281Q582 260 582 242Q582 212 601 200T645 187Q676 187 707 208Z" />
<glyph unicode="A" glyph-name="A" horiz-adv-x="773" d="M461 107H225L171 0H-62L321 708H577L711 0H477L461 107ZM436 274L407 471L308 274H436Z" />
<glyph unicode="B" glyph-name="B" horiz-adv-x="684" d="M662 462T622 420T526 363Q578 350 606 313T634 227Q634 211 631 194Q614 101 544 51T359 0H-12L112 708H473Q570 708 623 671T677 562Q677 550 673 524Q662 462 622 420ZM441 491T441 495Q441 532 389
532H303L286 432H372Q402 432 418 444T439 481Q441 491 441 495ZM411 232T411 240Q411 278 360 278H259L241 178H342Q373 178 389 189T410 227Q411 232 411 240Z" />
<glyph unicode="C" glyph-name="C" horiz-adv-x="753" d="M535 715T601 681T703 583T737 436H503Q494 471 468 490T403 510Q347 510 308 468T255 355Q251 335 251 312Q251 260 276 230T349 200Q387 200 420 219T475 274H709Q664 147 560 71T317 -5Q224 -5 158
30T58 128T23 276Q23 316 30 355Q48 460 105 542T249 669T443 715Q535 715 601 681Z" />
<glyph unicode="D" glyph-name="D" horiz-adv-x="743" d="M695 255T636 174T486 47T283 0H-12L112 708H407Q505 708 575 673T682 574T719 427Q719 394 713 356Q695 255 636 174ZM372 198T423 239T488 356Q492 382 492 394Q492 452 455 483T353 514H300L244 198H297Q372
198 423 239Z" />
<glyph unicode="E" glyph-name="E" horiz-adv-x="556" d="M303 532L288 444H508L478 277H258L241 177H491L460 0H-12L112 708H584L553 532H303Z" />
<glyph unicode="F" glyph-name="F" horiz-adv-x="575" d="M612 708L581 532H303L286 434H486L457 267H257L210 0H-12L112 708H612Z" />
<glyph unicode="G" glyph-name="G" horiz-adv-x="752" d="M542 715T606 683T702 595T738 466H504Q495 487 473 498T417 510Q353 510 311 469T255 355Q250 327 250 307Q250 248 283 219T385 190Q462 190 520 252H343L371 409H732L693 187Q574 -5 327 -5Q232 -5
164 31T59 132T23 285Q23 326 30 365Q48 467 105 546T252 670T451 715Q542 715 606 683Z" />
<glyph unicode="H" glyph-name="H" horiz-adv-x="755" d="M767 708L643 0H421L469 276H258L210 0H-12L112 708H334L289 453H500L545 708H767Z" />
<glyph unicode="I" glyph-name="I" horiz-adv-x="322" d="M334 708L210 0H-12L112 708H334Z" />
<glyph unicode="J" glyph-name="J" horiz-adv-x="590" d="M607 708L526 251Q504 124 426 59T228 -7Q117 -7 54 46T-10 204Q-10 235 -4 271H215Q212 253 212 240Q212 193 253 193Q273 193 286 206T305 251L386 708H607Z" />
<glyph unicode="K" glyph-name="K" horiz-adv-x="755" d="M485 364L683 0H416L264 307L210 0H-12L112 708H334L282 409L542 708H807L485 364Z" />
<glyph unicode="L" glyph-name="L" horiz-adv-x="506" d="M239 168H453L424 0H-12L112 708H334L239 168Z" />
<glyph unicode="M" glyph-name="M" horiz-adv-x="951" d="M963 708L839 0H618L680 354L509 0H319L272 353L210 0H-12L112 708H384L466 284L692 708H963Z" />
<glyph unicode="N" glyph-name="N" horiz-adv-x="779" d="M667 0H445L272 356L210 0H-12L112 708H334L506 346L569 708H791L667 0Z" />
<glyph unicode="O" glyph-name="O" horiz-adv-x="772" d="M522 720T596 681T709 570T748 404Q748 365 740 317Q723 222 671 149T538 34T353 -7Q249 -7 175 32T63 142T24 307Q24 356 32 397Q49 492 101 565T236 679T421 720Q522 720 596 681ZM342 515T301 476T248
367Q244 347 244 324Q244 266 275 233T369 200Q431 200 472 240T525 347Q529 368 529 391Q529 450 498 482T405 515Q342 515 301 476Z" />
<glyph unicode="P" glyph-name="P" horiz-adv-x="649" d="M249 225L210 0H-12L112 708H422Q536 708 595 657T654 517Q654 495 649 465Q637 398 597 344T490 257T337 225H249ZM412 400T424 465Q425 471 425 481Q425 530 366 530H303L280 400H343Q412 400 424 465Z" />
<glyph unicode="Q" glyph-name="Q" horiz-adv-x="772" d="M725 232T682 164T572 53L667 -115H405L359 -7H353Q249 -7 175 32T63 142T24 307Q24 356 32 397Q49 492 101 565T236 679T421 720Q522 720 596 681T709 570T748 404Q748 365 740 317Q725 232 682 164ZM244
347T244 324Q244 266 275 233T369 200Q431 200 472 240T525 347Q529 368 529 391Q529 450 498 482T405 515Q342 515 301 476T248 367Q244 347 244 324Z" />
<glyph unicode="R" glyph-name="R" horiz-adv-x="670" d="M556 708T615 657T675 520Q675 496 671 476Q658 404 609 350T481 271L588 0H344L254 254L210 0H-12L112 708H442Q556 708 615 657ZM280 402H368Q433 402 443 462Q444 467 444 475Q444 497 431 509T390
522H302L280 402Z" />
<glyph unicode="S" glyph-name="S" horiz-adv-x="621" d="M560 127T523 85T424 18T285 -7Q154 -7 81 54T7 227H243Q237 166 287 166Q306 166 319 177T332 209Q332 233 309 249T234 287Q178 310 141 332T76 394T49 493Q49 514 54 544Q69 628 147 674T333 720Q470
720 537 660T607 491H368Q373 547 332 547Q316 547 305 537T293 506Q293 484 315 470T387 435Q444 412 481 391T546 330T574 230Q574 209 569 179Q560 127 523 85Z" />
<glyph unicode="T" glyph-name="T" horiz-adv-x="616" d="M668 708L637 532H449L356 0H134L227 532H41L72 708H668Z" />
<glyph unicode="U" glyph-name="U" horiz-adv-x="719" d="M330 708L260 309Q257 293 257 276Q257 242 275 223T332 203Q380 203 408 231T445 309L515 708H736L666 309Q648 208 593 137T459 29T290 -7Q171 -7 102 55T32 233Q32 271 39 309L109 708H330Z" />
<glyph unicode="V" glyph-name="V" horiz-adv-x="763" d="M298 708L359 221L589 708H825L463 0H176L62 708H298Z" />
<glyph unicode="W" glyph-name="W" horiz-adv-x="1100" d="M1132 708L846 0H570L558 402L406 0H130L92 708H331L317 262L491 708H733L750 262L893 708H1132Z" />
<glyph unicode="X" glyph-name="X" horiz-adv-x="764" d="M516 350L702 0H439L341 184L201 0H-52L245 365L62 708H325L419 531L554 708H807L516 350Z" />
<glyph unicode="Y" glyph-name="Y" horiz-adv-x="730" d="M792 708L451 215L414 0H192L229 215L62 708H316L385 457L542 708H792Z" />
<glyph unicode="Z" glyph-name="Z" horiz-adv-x="630" d="M265 177H549L518 0H-12L17 167L361 532H81L112 708H642L613 541L265 177Z" />
<glyph unicode="[" glyph-name="bracketleft" horiz-adv-x="533" d="M579 955L547 777H373L233 -21H407L375 -199H-7L197 955H579Z" />
<glyph unicode="\" glyph-name="backslash" horiz-adv-x="878" d="M338 -198L302 955H514L550 -198H338Z" />
<glyph unicode="]" glyph-name="bracketright" horiz-adv-x="530" d="M-48 -199L-16 -21H159L299 777H124L156 955H538L334 -199H-48Z" />
<glyph unicode="^" glyph-name="asciicircum" horiz-adv-x="758" d="M197 162H-23L319 711H537L685 162H465L384 460L197 162Z" />
<glyph unicode="_" glyph-name="underscore" horiz-adv-x="734" d="M683 -42L645 -258H-30L8 -42H683Z" />
<glyph unicode="`" glyph-name="grave" horiz-adv-x="324" d="M332 750L306 602L64 696L93 860L332 750Z" />
<glyph unicode="a" glyph-name="a" horiz-adv-x="683" d="M356 571T395 549T448 487L462 564H683L583 0H362L376 77Q348 38 304 16T205 -7Q116 -7 66 51T15 215Q15 252 23 302Q38 385 78 446T176 539T297 571Q356 571 395 549ZM311 377T284 352T248 282Q246 273
246 258Q246 224 264 206T313 187Q349 187 376 212T412 282Q414 291 414 306Q414 340 396 358T347 377Q311 377 284 352Z" />
<glyph unicode="b" glyph-name="b" horiz-adv-x="682" d="M0 0L131 740H353L308 487Q336 526 379 548T478 571Q563 571 615 514T667 356Q667 318 660 282Q644 193 602 128T501 28T376 -7Q321 -7 286 15T236 77L222 0H0ZM372 187T399 212T435 282Q437 291 437 306Q437
340 419 358T370 377Q334 377 307 352T271 282Q269 273 269 258Q269 224 287 206T336 187Q372 187 399 212Z" />
<glyph unicode="c" glyph-name="c" horiz-adv-x="616" d="M465 571T532 509T601 337H366Q359 381 322 381Q295 381 276 356T247 282Q243 254 243 245Q243 214 255 199T288 183Q326 183 346 227H581Q542 117 456 55T259 -7Q148 -7 82 56T15 231Q15 258 22 302Q37
384 83 445T199 538T351 571Q465 571 532 509Z" />
<glyph unicode="d" glyph-name="d" horiz-adv-x="676" d="M713 740L582 0H360L374 77Q346 38 303 16T204 -7Q119 -7 67 53T15 221Q15 261 22 302Q37 385 77 446T175 539T296 571Q355 571 393 549T446 487L491 740H713ZM310 377T283 352T247 282Q245 273 245 258Q245
224 263 206T312 187Q348 187 375 212T411 282Q413 291 413 306Q413 340 395 358T346 377Q310 377 283 352Z" />
<glyph unicode="e" glyph-name="e" horiz-adv-x="617" d="M470 571T536 512T602 349Q602 320 596 287Q590 260 583 243H229Q228 236 228 223Q228 193 240 182T276 170Q313 170 334 203H569Q534 110 451 52T256 -7Q145 -7 80 54T15 225Q15 257 21 293Q36 378 84
441T203 537T358 571Q470 571 536 512ZM380 339T380 349Q380 373 365 385T327 397Q267 397 246 334H379Q380 339 380 349Z" />
<glyph unicode="f" glyph-name="f" horiz-adv-x="385" d="M393 606T387 606Q361 606 346 596T323 564H404L372 379H289L222 0H0L66 379H7L39 564H99Q120 674 198 734T399 795Q413 795 445 793L411 604Q393 606 387 606Z" />
<glyph unicode="g" glyph-name="g" horiz-adv-x="679" d="M120 -7T68 53T16 221Q16 261 23 302Q38 385 78 446T176 539T297 571Q356 571 395 549T448 487L462 564H683L585 10Q563 -114 482 -195T256 -277Q123 -277 53 -214T-18 -41H200Q202 -85 264 -85Q303 -85
328 -65T364 10L376 77Q348 38 304 16T205 -7Q120 -7 68 53ZM311 377T284 352T248 282Q246 273 246 258Q246 224 264 206T313 187Q349 187 376 212T412 282Q414 291 414 306Q414 340 396 358T347 377Q311 377 284 352Z" />
<glyph unicode="h" glyph-name="h" horiz-adv-x="696" d="M576 568T620 521T664 391Q664 362 658 327L601 0H380L432 299Q434 315 434 321Q434 352 417 369T369 386Q335 386 311 366T276 310L222 0H0L130 740H352L306 479Q340 519 388 543T495 568Q576 568 620 521Z" />
<glyph unicode="i" glyph-name="i" horiz-adv-x="320" d="M108 735T127 764T181 811T258 829Q309 829 338 804T367 738Q367 703 348 674T295 627T219 609Q167 609 138 634T108 700Q108 735 127 764ZM321 564L222 0H0L99 564H321Z" />
<glyph unicode="j" glyph-name="j" horiz-adv-x="320" d="M173 609T144 634T114 700Q114 735 133 764T187 811T264 829Q315 829 344 804T373 738Q373 703 354 674T301 627T225 609Q173 609 144 634ZM-94 -81H-51Q-29 -81 -18 -72T-3 -43L104 564H326L219 -39Q179
-270 -53 -270H-127L-94 -81Z" />
<glyph unicode="k" glyph-name="k" horiz-adv-x="676" d="M458 288L615 0H361L263 233L222 0H0L130 740H352L285 360L462 564H720L458 288Z" />
<glyph unicode="l" glyph-name="l" horiz-adv-x="317" d="M352 740L222 0H0L130 740H352Z" />
<glyph unicode="m" glyph-name="m" horiz-adv-x="1076" d="M945 568T994 520T1043 386Q1043 353 1038 327L980 0H759L812 299Q813 305 813 315Q813 344 796 360T746 376Q710 376 686 357T655 303L601 0H380L433 299Q434 305 434 315Q434 344 417 360T367 376Q330
376 306 356T275 299V304L222 0H0L99 564H321L308 487Q338 523 383 545T485 568Q546 568 588 542T650 466Q689 511 741 539T853 568Q945 568 994 520Z" />
<glyph unicode="n" glyph-name="n" horiz-adv-x="697" d="M577 568T621 521T665 389Q665 360 659 327L601 0H380L433 299Q435 313 435 320Q435 351 418 368T369 386Q332 386 307 363T275 299V304L222 0H0L99 564H321L306 478Q340 518 387 543T495 568Q577 568 621 521Z" />
<glyph unicode="o" glyph-name="o" horiz-adv-x="638" d="M440 571T499 542T590 458T623 328Q623 297 617 262Q602 180 554 119T433 26T278 -7Q200 -7 141 22T48 107T15 237Q15 268 21 302Q36 384 85 445T207 538T364 571Q440 571 499 542ZM305 379T280 355T246
282Q243 266 243 253Q243 219 259 202T302 185Q333 185 358 209T392 282Q395 297 395 311Q395 345 379 362T336 379Q305 379 280 355Z" />
<glyph unicode="p" glyph-name="p" horiz-adv-x="681" d="M562 571T614 514T666 356Q666 318 659 282Q643 193 601 128T500 28T375 -7Q320 -7 285 15T235 77L174 -270H-48L99 564H321L307 487Q335 526 378 548T477 571Q562 571 614 514ZM371 187T398 212T434 282Q436
291 436 306Q436 340 418 358T369 377Q333 377 306 352T270 282Q268 273 268 258Q268 224 286 206T335 187Q371 187 398 212Z" />
<glyph unicode="q" glyph-name="q" horiz-adv-x="675" d="M682 564L535 -270H314L373 62Q336 27 300 11T221 -6Q124 -6 70 55T15 222Q15 260 22 298Q36 384 80 445T185 537T312 568Q361 568 395 556T452 514L461 564H682ZM316 376T286 352T247 278Q245 269 245
255Q245 219 265 203T313 187Q344 187 373 210T411 282Q413 291 413 306Q413 342 393 359T346 376Q316 376 286 352Z" />
<glyph unicode="r" glyph-name="r" horiz-adv-x="467" d="M346 509T400 538T507 568L465 331H402Q339 331 306 309T263 231L222 0H0L99 564H321L303 460Q346 509 400 538Z" />
<glyph unicode="s" glyph-name="s" horiz-adv-x="579" d="M424 571T490 516T567 369H350Q345 417 279 417Q259 417 248 412T236 394Q236 380 257 372T325 352Q390 336 433 320T508 269T541 180Q541 160 537 143Q524 76 458 35T277 -7Q158 -7 85 45T5 195H222Q220
168 241 157T295 146Q333 146 338 168Q341 184 321 193T250 213Q187 227 145 243T70 292T38 381Q38 393 42 419Q53 485 119 528T298 571Q424 571 490 516Z" />
<glyph unicode="t" glyph-name="t" horiz-adv-x="436" d="M285 227Q284 223 284 217Q284 189 320 189H373L339 0H255Q58 0 58 167Q58 197 64 231L90 379H20L53 564H123L147 700H369L345 564H437L404 379H312L285 227Z" />
<glyph unicode="u" glyph-name="u" horiz-adv-x="687" d="M687 564L588 0H366L381 86Q347 46 300 21T192 -4Q110 -4 66 43T22 175Q22 204 28 237L86 564H307L254 265Q252 251 252 244Q252 213 269 196T318 178Q355 178 380 201T412 265V260L465 564H687Z" />
<glyph unicode="v" glyph-name="v" horiz-adv-x="641" d="M293 211L446 564H682L394 0H117L29 564H265L293 211Z" />
<glyph unicode="w" glyph-name="w" horiz-adv-x="883" d="M936 564L702 0H452L440 318L312 0H62L29 564H249L236 221L369 564H606L622 217L731 564H936Z" />
<glyph unicode="x" glyph-name="x" horiz-adv-x="648" d="M442 274L598 0H350L278 127L184 0H-60L182 297L30 564H278L350 436L445 564H689L442 274Z" />
<glyph unicode="y" glyph-name="y" horiz-adv-x="667" d="M271 564L326 278L476 564H721L212 -270H-31L164 28L24 564H271Z" />
<glyph unicode="z" glyph-name="z" horiz-adv-x="518" d="M246 184H481L448 0H-30L1 174L252 380H40L73 564H538L507 390L246 184Z" />
<glyph unicode="{" glyph-name="braceleft" horiz-adv-x="513" d="M291 363T312 341T334 277Q334 262 331 242Q325 212 307 148Q289 93 282 52Q275 14 275 -21Q275 -92 303 -137T378 -201L375 -217H148Q114 -201 83 -154T52 -23Q52 14 59 55Q65 93 85 152Q88 161
96 190T110 248Q112 260 112 267Q112 297 93 316T31 336L43 408Q94 408 120 433T154 496Q160 530 162 589Q164 652 171 689Q186 773 220 831T291 919T356 961H583L580 945Q513 921 463 858T394 692Q388 651 386 597Q386 590 384 560T377 502Q367 444 336 414T247
373V371Q291 363 312 341Z" />
<glyph unicode="|" glyph-name="bar" horiz-adv-x="262" d="M156 -144H-66L106 828H328L156 -144Z" />
<glyph unicode="}" glyph-name="braceright" horiz-adv-x="489" d="M222 382T200 401T178 457Q178 473 180 482Q185 511 204 575Q224 636 230 672Q237 716 237 745Q237 820 210 873T137 945L140 961H366Q400 945 431 898T462 767Q462 730 455 689Q449 651 429
592Q426 583 418 554T404 496Q402 484 402 476Q402 447 419 427T470 407L483 408L471 336Q466 337 456 337Q416 337 391 310T360 248Q354 214 352 155Q350 92 343 55Q328 -29 294 -87T223 -175T158 -217H-68L-65 -201Q-23 -186 16 -147T83 -51T124 72Q129 100 130
130T133 168Q135 222 142 262Q150 310 180 335T268 371V373Q222 382 200 401Z" />
<glyph unicode="~" glyph-name="asciitilde" horiz-adv-x="711" d="M314 445T342 435T403 405Q429 391 444 385T477 378Q504 378 520 394T548 447H714Q669 311 596 247T432 183Q396 183 369 193T308 223Q282 237 266 243T233 250Q206 250 190 234T161 181H-3Q43
317 115 381T278 445Q314 445 342 435Z" />
<glyph unicode="&#xa0;" glyph-name="uni00A0" horiz-adv-x="170" />
<glyph unicode="&#xa1;" glyph-name="exclamdown" horiz-adv-x="463" d="M21 -184L138 290H339L278 -184H21ZM135 359L175 571H408L368 359H135Z" />
<glyph unicode="&#xa2;" glyph-name="cent" horiz-adv-x="579" d="M282 337T261 315T232 253Q230 244 230 228Q230 170 286 170Q304 170 322 179T348 205H551Q530 116 460 62T299 -5L285 -83H194L208 -6Q116 5 66 56T15 195Q15 228 20 254Q40 367 114 433T299
511L312 589H403L390 511Q469 501 519 454T570 329Q570 320 568 302H365Q361 321 347 329T316 337Q282 337 261 315Z" />
<glyph unicode="&#xa3;" glyph-name="sterling" horiz-adv-x="659" d="M455 531Q458 591 411 591Q359 591 347 522Q345 506 345 496Q345 475 351 421H519L493 274H342Q317 204 262 165H597L566 -6H14L6 98Q59 134 89 175T135 274H32L58 421H135Q133 449 133 466Q133
507 140 548Q158 652 239 711T435 771Q547 771 604 716T661 569Q661 557 659 531H455Z" />
<glyph unicode="&#xa4;" glyph-name="currency" horiz-adv-x="603" d="M512 491Q535 457 535 412Q535 397 532 379Q520 314 474 268L515 219L420 138L365 206Q323 193 271 193Q220 193 178 207L97 138L32 219L93 271Q73 303 73 345Q73 361 76 379Q88 444 132 488L88
541L183 622L243 549Q287 561 336 561Q381 561 422 550L506 622L571 541L512 491ZM244 372T244 364Q244 341 257 331T293 320Q321 320 342 338T363 393Q363 415 350 425T314 436Q289 436 270 422T245 377Q244 372 244 364Z" />
<glyph unicode="&#xa5;" glyph-name="yen" horiz-adv-x="730" d="M615 452H692L667 308H515L490 272H661L635 128H436L414 0H192L214 128H13L39 272H210L197 308H45L70 452H149L62 708H316L379 424L542 708H792L615 452Z" />
<glyph unicode="&#xa6;" glyph-name="brokenbar" horiz-adv-x="432" d="M191 828H413L337 398H115L191 828ZM241 -144H19L95 287H317L241 -144Z" />
<glyph unicode="&#xa7;" glyph-name="section" horiz-adv-x="595" d="M370 513Q372 531 372 537Q372 567 356 567Q347 567 341 559T335 534Q335 511 362 490T464 427Q577 358 577 269Q577 262 575 244Q567 198 539 163T453 101Q488 53 488 -7Q488 -26 485 -44Q470
-130 397 -182T207 -235Q108 -235 57 -186T5 -53Q5 -34 6 -25H225Q223 -43 223 -49Q223 -79 239 -79Q248 -79 254 -71T260 -46Q260 -23 234 -2T131 62Q19 126 19 218Q19 235 21 244Q39 348 142 388Q107 434 107 495Q107 514 110 532Q125 618 198 670T388 723Q487
723 538 674T590 541Q590 522 589 513H370ZM340 299T310 299Q288 299 273 279T257 228Q257 189 287 189Q310 189 325 210T340 261Q340 299 310 299Z" />
<glyph unicode="&#xa8;" glyph-name="dieresis" horiz-adv-x="417" d="M68 732T98 762T170 792Q203 792 223 773T244 722Q244 680 213 650T140 620Q109 620 89 639T68 689Q68 732 98 762ZM293 732T323 762T395 792Q428 792 448 773T469 722Q469 680 438 650T365
620Q334 620 314 639T293 689Q293 732 323 762Z" />
<glyph unicode="&#xa9;" glyph-name="copyright" horiz-adv-x="771" d="M346 720T257 674T109 546T30 358Q23 322 23 283Q23 197 59 132T163 30T322 -6Q426 -6 515 40T663 170T741 358Q748 396 748 435Q748 520 712 584T609 684T450 720Q346 720 257 674ZM552
655T615 595T678 428Q678 394 672 358Q656 268 609 201T491 96T333 59Q219 59 157 120T94 288Q94 322 100 358Q116 448 162 515T280 618T439 655Q552 655 615 595ZM482 578T524 556T588 493T609 398H425Q421 433 393 433Q348 433 335 357Q332 341 332 328Q332 281
367 281Q395 281 411 316H595Q568 234 501 185T351 136Q262 136 211 182T160 309Q160 334 164 357Q182 458 254 518T429 578Q482 578 524 556Z" />
<glyph unicode="&#xaa;" glyph-name="ordfeminine" horiz-adv-x="461" d="M256 712T280 699T319 658L328 708H492L430 355H266L275 404Q250 376 222 363T154 350Q92 350 54 385T16 486Q16 509 20 530Q35 616 89 664T216 712Q256 712 280 699ZM226 582T207 565T188
518Q188 499 200 490T234 481Q260 481 279 497T298 542Q298 561 285 571T252 582Q226 582 207 565Z" />
<glyph unicode="&#xab;" glyph-name="guillemotleft" horiz-adv-x="618" d="M91 120L45 295L153 470H354L244 295L292 120H91ZM346 120L300 295L408 470H609L499 295L547 120H346Z" />
<glyph unicode="&#xac;" glyph-name="logicalnot" horiz-adv-x="794" d="M755 448L703 155H481L504 282H18L47 448H755Z" />
<glyph unicode="&#xad;" glyph-name="uni00AD" horiz-adv-x="576" d="M557 433L525 250H59L91 433H557Z" />
<glyph unicode="&#xae;" glyph-name="registered" horiz-adv-x="819" d="M572 720T645 684T757 583T796 431Q796 402 789 358Q771 252 709 170T552 41T346 -6Q247 -6 175 30T63 133T24 287Q24 321 30 358Q49 463 111 545T268 674T474 720Q572 720 645 684ZM726
393T726 423Q726 531 657 593T463 655Q368 655 292 619T166 515T100 358Q94 324 94 293Q94 185 163 122T357 59Q451 59 528 96T654 200T720 358Q726 393 726 423ZM546 571T579 541T612 464Q612 419 585 379T506 319L569 153H423L374 291L350 153H215L289 571H475Q546
571 579 541ZM392 390H429Q470 390 470 426Q470 449 439 449H402L392 390Z" />
<glyph unicode="&#xaf;" glyph-name="overscore" horiz-adv-x="451" d="M514 769L488 622H57L83 769H514Z" />
<glyph unicode="&#xb0;" glyph-name="degree" horiz-adv-x="496" d="M372 715T424 677T476 569Q476 551 473 533Q458 447 390 397T221 347Q129 347 75 388T20 500Q20 517 23 533Q39 618 108 666T281 715Q372 715 424 677ZM239 600T219 583T192 531Q190 519 190
515Q190 490 205 477T241 464Q262 464 280 480T304 531Q306 545 306 550Q306 576 293 588T262 600Q239 600 219 583Z" />
<glyph unicode="&#xb1;" glyph-name="plusminus" horiz-adv-x="551" d="M389 344L381 297H529L494 96H-17L18 297H168L176 344H27L62 545H211L226 630H439L424 545H573L538 344H389Z" />
<glyph unicode="&#xb2;" glyph-name="twosuperior" horiz-adv-x="422" d="M348 717T382 690T417 625Q417 583 381 553T256 492L213 477H383L361 352H16L37 474L185 544Q236 568 241 595Q241 603 233 603Q216 603 209 569H46Q63 635 124 676T275 717Q348 717 382 690Z" />
<glyph unicode="&#xb3;" glyph-name="threesuperior" horiz-adv-x="403" d="M313 717T352 693T391 627Q391 616 390 611Q378 549 302 537L301 533Q339 524 355 509T372 468Q372 458 371 452Q362 402 312 376T181 349Q84 349 44 378T3 464Q3 476 4 482H176Q175
478 175 473Q175 462 186 462Q199 462 203 483Q204 486 204 492Q204 508 181 508H151L160 562H181Q195 562 202 568T212 588V593Q212 605 203 605Q188 605 184 577H28Q38 636 89 676T241 717Q313 717 352 693Z" />
<glyph unicode="&#xb4;" glyph-name="acute" horiz-adv-x="279" d="M323 696L47 602L73 750L352 860L323 696Z" />
<glyph unicode="&#xb5;" glyph-name="uni00B5" horiz-adv-x="701" d="M700 564L600 0H378L392 77Q362 42 318 20T220 -4L172 -270H-49L99 564H320L267 266Q266 260 266 249Q266 220 283 204T332 188Q369 188 394 209T425 266V264L478 564H700Z" />
<glyph unicode="&#xb6;" glyph-name="paragraph" horiz-adv-x="778" d="M641 0H464L559 542H501L406 0H230L276 265H245Q140 265 91 315T41 442Q41 466 45 486Q55 544 88 594T181 676T323 708H765L641 0Z" />
<glyph unicode="&#xb7;" glyph-name="middot" horiz-adv-x="306" d="M281 407L243 195H23L61 407H281Z" />
<glyph unicode="&#xb8;" glyph-name="cedilla" horiz-adv-x="343" d="M263 -27T297 -50T332 -123Q332 -140 330 -149Q318 -214 268 -242T158 -271H-15L5 -158H155Q167 -158 175 -154T184 -142V-139Q184 -127 161 -127H76L100 7H228L222 -27Q263 -27 297 -50Z" />
<glyph unicode="&#xb9;" glyph-name="onesuperior" horiz-adv-x="285" d="M29 577L51 704H281L219 352H55L95 577H29Z" />
<glyph unicode="&#xba;" glyph-name="ordmasculine" horiz-adv-x="450" d="M355 709T404 669T453 561Q453 546 450 529Q441 478 408 437T321 371T203 347Q115 347 66 389T17 497Q17 513 20 529Q29 581 62 621T148 685T267 709Q355 709 404 669ZM224 584T208 570T187
529Q185 517 185 514Q185 494 196 484T225 473Q246 473 262 487T283 529Q285 541 285 544Q285 564 274 574T245 584Q224 584 208 570Z" />
<glyph unicode="&#xbb;" glyph-name="guillemotright" horiz-adv-x="618" d="M130 295L81 470H283L328 295L221 120H19L130 295ZM385 295L336 470H538L583 295L476 120H274L385 295Z" />
<glyph unicode="&#xbc;" glyph-name="onequarter" horiz-adv-x="899" d="M766 708L254 0H37L550 708H766ZM11 577L33 704H263L201 352H37L77 577H11ZM824 58H789L779 0H614L624 58H421L436 142L614 351H841L805 146H840L824 58ZM667 250L591 151H650L667 250Z" />
<glyph unicode="&#xbd;" glyph-name="onehalf" horiz-adv-x="928" d="M785 711L262 0H45L569 711H785ZM107 577H41L63 704H293L231 352H67L107 577ZM807 364T841 337T876 272Q876 230 840 200T715 139L672 124H842L820 -1H475L496 121L644 191Q695 215 700 242Q700
250 692 250Q675 250 668 216H505Q522 282 583 323T734 364Q807 364 841 337Z" />
<glyph unicode="&#xbe;" glyph-name="threequarters" horiz-adv-x="1024" d="M343 717T382 693T421 627Q421 616 420 611Q408 549 332 537L331 533Q369 524 385 509T402 468Q402 458 401 452Q392 402 342 376T211 349Q114 349 74 378T33 464Q33 476 34 482H206Q205
478 205 473Q205 462 216 462Q229 462 233 483Q234 486 234 492Q234 508 211 508H181L190 562H211Q225 562 232 568T242 588V593Q242 605 233 605Q218 605 214 577H58Q68 636 119 676T271 717Q343 717 382 693ZM879 711L384 0H168L662 711H879ZM956 58H921L911
0H747L757 58H553L568 142L726 351H973L937 146H972L956 58ZM803 270L723 146H782L803 270Z" />
<glyph unicode="&#xbf;" glyph-name="questiondown" horiz-adv-x="539" d="M102 -200T46 -158T-11 -32Q-11 -12 -6 16Q10 105 79 159T244 216L257 287H465L427 75H343Q283 75 250 62T211 17L210 9Q210 -5 218 -12T239 -20Q258 -20 269 -8T285 25H494Q486 -36 450
-87T349 -169T199 -200Q102 -200 46 -158ZM263 361L300 573H520L483 361H263Z" />
<glyph unicode="&#xc0;" glyph-name="Agrave" horiz-adv-x="773" d="M462 107H226L172 0H-61L322 708H578L712 0H478L462 107ZM437 274L408 471L309 274H437ZM606 894L580 746L338 840L367 1004L606 894Z" />
<glyph unicode="&#xc1;" glyph-name="Aacute" horiz-adv-x="773" d="M462 107H226L172 0H-61L322 708H578L712 0H478L462 107ZM437 274L408 471L309 274H437ZM596 840L320 746L346 894L625 1004L596 840Z" />
<glyph unicode="&#xc2;" glyph-name="Acircumflex" horiz-adv-x="773" d="M466 107H230L176 0H-57L326 708H582L716 0H482L466 107ZM441 274L412 471L313 274H441ZM472 824L291 736L316 880L497 965L647 880L622 736L472 824Z" />
<glyph unicode="&#xc3;" glyph-name="Atilde" horiz-adv-x="773" d="M468 107H232L178 0H-55L328 708H584L718 0H484L468 107ZM443 274L414 471L315 274H443ZM450 932T469 925T511 905Q530 895 540 891T562 886Q599 886 615 933H724Q691 840 644 799T532 758Q508
758 489 765T447 785Q444 787 433 792T413 800T396 803Q359 803 342 756H234Q267 849 314 890T426 932Q450 932 469 925Z" />
<glyph unicode="&#xc4;" glyph-name="Adieresis" horiz-adv-x="773" d="M468 107H232L178 0H-55L328 708H584L718 0H484L468 107ZM443 274L414 471L315 274H443ZM278 876T308 906T380 936Q413 936 433 917T454 866Q454 824 423 794T350 764Q319 764 299 783T278
833Q278 876 308 906ZM503 876T533 906T605 936Q638 936 658 917T679 866Q679 824 648 794T575 764Q544 764 524 783T503 833Q503 876 533 906Z" />
<glyph unicode="&#xc5;" glyph-name="Aring" horiz-adv-x="773" d="M463 107H227L173 0H-60L323 708H579L713 0H479L463 107ZM438 274L409 471L310 274H438ZM546 1001T576 973T607 896Q607 878 605 869Q595 809 551 773T450 737Q400 737 370 765T339 842Q339 860
341 869Q351 929 395 965T496 1001Q546 1001 576 973ZM458 916T442 901T426 860Q426 843 437 833T465 822Q487 822 503 838T520 879Q520 896 509 906T481 916Q458 916 442 901Z" />
<glyph unicode="&#xc6;" glyph-name="AE" horiz-adv-x="986" d="M743 532L728 447H938L909 280H699L681 177H921L890 0H428L445 97H241L179 0H-62L401 708H1014L983 532H743ZM474 264L522 537L348 264H474Z" />
<glyph unicode="&#xc7;" glyph-name="Ccedilla" horiz-adv-x="753" d="M546 715T612 681T714 583T748 436H514Q505 471 479 490T414 510Q358 510 319 468T266 355Q262 335 262 312Q262 260 287 230T360 200Q398 200 431 219T486 274H720Q675 147 571 71T328 -5Q235
-5 169 30T69 128T34 276Q34 316 41 355Q59 460 116 542T260 669T454 715Q546 715 612 681ZM429 -27T463 -50T498 -123Q498 -140 496 -149Q484 -214 434 -242T324 -271H151L171 -158H321Q333 -158 341 -154T350 -142V-139Q350 -127 327 -127H242L266 7H394L388
-27Q429 -27 463 -50Z" />
<glyph unicode="&#xc8;" glyph-name="Egrave" horiz-adv-x="556" d="M550 532L535 444H755L725 277H505L488 177H738L707 0H235L359 708H831L800 532H550ZM496 894L470 746L228 840L257 1004L496 894Z" />
<glyph unicode="&#xc9;" glyph-name="Eacute" horiz-adv-x="556" d="M550 532L535 444H755L725 277H505L488 177H738L707 0H235L359 708H831L800 532H550ZM487 840L211 746L237 894L516 1004L487 840Z" />
<glyph unicode="&#xca;" glyph-name="Ecircumflex" horiz-adv-x="556" d="M554 532L539 444H759L729 277H509L492 177H742L711 0H239L363 708H835L804 532H554ZM362 824L181 736L206 880L387 965L537 880L512 736L362 824Z" />
<glyph unicode="&#xcb;" glyph-name="Edieresis" horiz-adv-x="555" d="M556 532L541 444H761L731 277H511L494 177H744L713 0H241L365 708H837L806 532H556ZM168 876T198 906T270 936Q303 936 323 917T344 866Q344 824 313 794T240 764Q209 764 189 783T168 833Q168
876 198 906ZM393 876T423 906T495 936Q528 936 548 917T569 866Q569 824 538 794T465 764Q434 764 414 783T393 833Q393 876 423 906Z" />
<glyph unicode="&#xcc;" glyph-name="Igrave" horiz-adv-x="321" d="M335 708L211 0H-11L113 708H335ZM380 894L354 746L112 840L141 1004L380 894Z" />
<glyph unicode="&#xcd;" glyph-name="Iacute" horiz-adv-x="321" d="M335 708L211 0H-11L113 708H335ZM371 840L95 746L121 894L400 1004L371 840Z" />
<glyph unicode="&#xce;" glyph-name="Icircumflex" horiz-adv-x="322" d="M339 708L215 0H-7L117 708H339ZM247 824L66 736L91 880L272 965L422 880L397 736L247 824Z" />
<glyph unicode="&#xcf;" glyph-name="Idieresis" horiz-adv-x="322" d="M341 708L217 0H-5L119 708H341ZM54 876T84 906T156 936Q189 936 209 917T230 866Q230 824 199 794T126 764Q95 764 75 783T54 833Q54 876 84 906ZM279 876T309 906T381 936Q414 936 434
917T455 866Q455 824 424 794T351 764Q320 764 300 783T279 833Q279 876 309 906Z" />
<glyph unicode="&#xd0;" glyph-name="Eth" horiz-adv-x="743" d="M505 708T575 673T682 574T719 427Q719 394 713 356Q695 255 636 174T486 47T283 0H-12L35 268H-15L16 444H66L112 708H407Q505 708 575 673ZM492 382T492 394Q492 452 455 483T353 514H300L288
444H418L387 268H256L244 198H297Q372 198 423 239T488 356Q492 382 492 394Z" />
<glyph unicode="&#xd1;" glyph-name="Ntilde" horiz-adv-x="779" d="M921 0H699L526 356L464 0H242L366 708H588L760 346L823 708H1045L921 0ZM443 932T462 925T504 905Q523 895 533 891T555 886Q592 886 608 933H717Q684 840 637 799T525 758Q501 758 482 765T440
785Q437 787 426 792T406 800T389 803Q352 803 335 756H227Q260 849 307 890T419 932Q443 932 462 925Z" />
<glyph unicode="&#xd2;" glyph-name="Ograve" horiz-adv-x="772" d="M770 720T844 681T957 570T996 404Q996 365 988 317Q971 222 919 149T786 34T601 -7Q497 -7 423 32T311 142T272 307Q272 356 280 397Q297 492 349 565T484 679T669 720Q770 720 844 681ZM590
515T549 476T496 367Q492 347 492 324Q492 266 523 233T617 200Q679 200 720 240T773 347Q777 368 777 391Q777 450 746 482T653 515Q590 515 549 476ZM605 894L579 746L337 840L366 1004L605 894Z" />
<glyph unicode="&#xd3;" glyph-name="Oacute" horiz-adv-x="772" d="M762 720T836 681T949 570T988 404Q988 365 980 317Q963 222 911 149T778 34T593 -7Q489 -7 415 32T303 142T264 307Q264 356 272 397Q289 492 341 565T476 679T661 720Q762 720 836 681ZM582
515T541 476T488 367Q484 347 484 324Q484 266 515 233T609 200Q671 200 712 240T765 347Q769 368 769 391Q769 450 738 482T645 515Q582 515 541 476ZM588 840L312 746L338 894L617 1004L588 840Z" />
<glyph unicode="&#xd4;" glyph-name="Ocircumflex" horiz-adv-x="772" d="M766 720T840 681T953 570T992 404Q992 365 984 317Q967 222 915 149T782 34T597 -7Q493 -7 419 32T307 142T268 307Q268 356 276 397Q293 492 345 565T480 679T665 720Q766 720 840 681ZM586
515T545 476T492 367Q488 347 488 324Q488 266 519 233T613 200Q675 200 716 240T769 347Q773 368 773 391Q773 450 742 482T649 515Q586 515 545 476ZM463 824L282 736L307 880L488 965L638 880L613 736L463 824Z" />
<glyph unicode="&#xd5;" glyph-name="Otilde" horiz-adv-x="772" d="M769 720T843 681T956 570T995 404Q995 365 987 317Q970 222 918 149T785 34T600 -7Q496 -7 422 32T310 142T271 307Q271 356 279 397Q296 492 348 565T483 679T668 720Q769 720 843 681ZM589
515T548 476T495 367Q491 347 491 324Q491 266 522 233T616 200Q678 200 719 240T772 347Q776 368 776 391Q776 450 745 482T652 515Q589 515 548 476ZM441 932T460 925T502 905Q521 895 531 891T553 886Q590 886 606 933H715Q682 840 635 799T523 758Q499 758
480 765T438 785Q435 787 424 792T404 800T387 803Q350 803 333 756H225Q258 849 305 890T417 932Q441 932 460 925Z" />
<glyph unicode="&#xd6;" glyph-name="Odieresis" horiz-adv-x="772" d="M768 720T842 681T955 570T994 404Q994 365 986 317Q969 222 917 149T784 34T599 -7Q495 -7 421 32T309 142T270 307Q270 356 278 397Q295 492 347 565T482 679T667 720Q768 720 842 681ZM588
515T547 476T494 367Q490 347 490 324Q490 266 521 233T615 200Q677 200 718 240T771 347Q775 368 775 391Q775 450 744 482T651 515Q588 515 547 476ZM270 876T300 906T372 936Q405 936 425 917T446 866Q446 824 415 794T342 764Q311 764 291 783T270 833Q270
876 300 906ZM495 876T525 906T597 936Q630 936 650 917T671 866Q671 824 640 794T567 764Q536 764 516 783T495 833Q495 876 525 906Z" />
<glyph unicode="&#xd7;" glyph-name="multiply" horiz-adv-x="581" d="M443 351L549 223L377 78L273 205L126 79L8 221L155 347L56 467L228 612L326 494L463 612L582 470L443 351Z" />
<glyph unicode="&#xd8;" glyph-name="Oslash" horiz-adv-x="788" d="M698 587Q747 510 747 405Q747 365 739 317Q722 222 670 149T537 34T352 -7Q217 -7 132 58L71 1H-45L77 115Q23 192 23 307Q23 356 31 397Q48 492 100 565T235 679T420 720Q489 720 546 701T646
646L717 712H832L698 587ZM243 347T243 324Q243 296 250 276L483 494Q451 515 404 515Q341 515 300 476T247 367Q243 347 243 324ZM528 367T528 391Q528 410 525 425L300 215Q327 200 368 200Q430 200 471 240T524 347Q528 367 528 391Z" />
<glyph unicode="&#xd9;" glyph-name="Ugrave" horiz-adv-x="719" d="M578 708L508 309Q505 293 505 276Q505 242 523 223T580 203Q628 203 656 231T693 309L763 708H984L914 309Q896 208 841 137T707 29T538 -7Q419 -7 350 55T280 233Q280 271 287 309L357 708H578ZM569
894L543 746L301 840L330 1004L569 894Z" />
<glyph unicode="&#xda;" glyph-name="Uacute" horiz-adv-x="719" d="M578 708L508 309Q505 293 505 276Q505 242 523 223T580 203Q628 203 656 231T693 309L763 708H984L914 309Q896 208 841 137T707 29T538 -7Q419 -7 350 55T280 233Q280 271 287 309L357 708H578ZM560
840L284 746L310 894L589 1004L560 840Z" />
<glyph unicode="&#xdb;" glyph-name="Ucircumflex" horiz-adv-x="719" d="M582 708L512 309Q509 293 509 276Q509 242 527 223T584 203Q632 203 660 231T697 309L767 708H988L918 309Q900 208 845 137T711 29T542 -7Q423 -7 354 55T284 233Q284 271 291 309L361
708H582ZM436 824L255 736L280 880L461 965L611 880L586 736L436 824Z" />
<glyph unicode="&#xdc;" glyph-name="Udieresis" horiz-adv-x="719" d="M584 708L514 309Q511 293 511 276Q511 242 529 223T586 203Q634 203 662 231T699 309L769 708H990L920 309Q902 208 847 137T713 29T544 -7Q425 -7 356 55T286 233Q286 271 293 309L363
708H584ZM242 876T272 906T344 936Q377 936 397 917T418 866Q418 824 387 794T314 764Q283 764 263 783T242 833Q242 876 272 906ZM467 876T497 906T569 936Q602 936 622 917T643 866Q643 824 612 794T539 764Q508 764 488 783T467 833Q467 876 497 906Z" />
<glyph unicode="&#xdd;" glyph-name="Yacute" horiz-adv-x="730" d="M1039 708L698 215L661 0H439L476 215L309 708H563L632 457L789 708H1039ZM566 840L290 746L316 894L595 1004L566 840Z" />
<glyph unicode="&#xde;" glyph-name="Thorn" horiz-adv-x="649" d="M232 125L210 0H-12L112 708H332L311 588H401Q515 588 574 539T633 403Q633 378 629 355Q618 291 578 239T472 156T320 125H232ZM392 290T404 355Q406 367 406 372Q406 420 347 420H284L261 290H324Q392
290 404 355Z" />
<glyph unicode="&#xdf;" glyph-name="germandbls" horiz-adv-x="763" d="M674 383T706 335T739 221Q739 194 733 164Q720 90 659 42T502 -6Q397 -6 338 47T279 194Q279 210 280 219H460Q460 201 469 194T490 186Q515 186 520 211L521 219Q521 232 512 241T475
269L344 358L359 430L372 438Q411 461 411 501Q411 521 399 532T364 544Q334 544 314 527T288 476L206 0H-16L70 484Q93 611 182 680T418 750Q496 750 549 728T627 670T653 590Q653 572 651 563Q646 530 621 501T555 451L608 420Q674 383 706 335Z" />
<glyph unicode="&#xe0;" glyph-name="agrave" horiz-adv-x="681" d="M361 571T400 549T453 487L467 564H688L588 0H367L381 77Q353 38 309 16T210 -7Q121 -7 71 51T20 215Q20 252 28 302Q43 385 83 446T181 539T302 571Q361 571 400 549ZM316 377T289 352T253
282Q251 273 251 258Q251 224 269 206T318 187Q354 187 381 212T417 282Q419 291 419 306Q419 340 401 358T352 377Q316 377 289 352ZM523 750L497 602L255 696L284 860L523 750Z" />
<glyph unicode="&#xe1;" glyph-name="aacute" horiz-adv-x="681" d="M361 571T400 549T453 487L467 564H688L588 0H367L381 77Q353 38 309 16T210 -7Q121 -7 71 51T20 215Q20 252 28 302Q43 385 83 446T181 539T302 571Q361 571 400 549ZM316 377T289 352T253
282Q251 273 251 258Q251 224 269 206T318 187Q354 187 381 212T417 282Q419 291 419 306Q419 340 401 358T352 377Q316 377 289 352ZM514 696L238 602L264 750L543 860L514 696Z" />
<glyph unicode="&#xe2;" glyph-name="acircumflex" horiz-adv-x="681" d="M601 571T640 549T693 487L707 564H928L828 0H607L621 77Q593 38 549 16T450 -7Q361 -7 311 51T260 215Q260 252 268 302Q283 385 323 446T421 539T542 571Q601 571 640 549ZM556 377T529
352T493 282Q491 273 491 258Q491 224 509 206T558 187Q594 187 621 212T657 282Q659 291 659 306Q659 340 641 358T592 377Q556 377 529 352ZM370 680L189 592L214 736L395 821L545 736L520 592L370 680Z" />
<glyph unicode="&#xe3;" glyph-name="atilde" horiz-adv-x="681" d="M367 571T406 549T459 487L473 564H694L594 0H373L387 77Q359 38 315 16T216 -7Q127 -7 77 51T26 215Q26 252 34 302Q49 385 89 446T187 539T308 571Q367 571 406 549ZM322 377T295 352T259
282Q257 273 257 258Q257 224 275 206T324 187Q360 187 387 212T423 282Q425 291 425 306Q425 340 407 358T358 377Q322 377 295 352ZM367 788T386 781T428 761Q447 751 457 747T479 742Q516 742 532 789H641Q608 696 561 655T449 614Q425 614 406 621T364 641Q361
643 350 648T330 656T313 659Q276 659 259 612H151Q184 705 231 746T343 788Q367 788 386 781Z" />
<glyph unicode="&#xe4;" glyph-name="adieresis" horiz-adv-x="681" d="M367 571T406 549T459 487L473 564H694L594 0H373L387 77Q359 38 315 16T216 -7Q127 -7 77 51T26 215Q26 252 34 302Q49 385 89 446T187 539T308 571Q367 571 406 549ZM322 377T295 352T259
282Q257 273 257 258Q257 224 275 206T324 187Q360 187 387 212T423 282Q425 291 425 306Q425 340 407 358T358 377Q322 377 295 352ZM196 732T226 762T298 792Q331 792 351 773T372 722Q372 680 341 650T268 620Q237 620 217 639T196 689Q196 732 226 762ZM421
732T451 762T523 792Q556 792 576 773T597 722Q597 680 566 650T493 620Q462 620 442 639T421 689Q421 732 451 762Z" />
<glyph unicode="&#xe5;" glyph-name="aring" horiz-adv-x="681" d="M598 571T637 549T690 487L704 564H925L825 0H604L618 77Q590 38 546 16T447 -7Q358 -7 308 51T257 215Q257 252 265 302Q280 385 320 446T418 539T539 571Q598 571 637 549ZM553 377T526 352T490
282Q488 273 488 258Q488 224 506 206T555 187Q591 187 618 212T654 282Q656 291 656 306Q656 340 638 358T589 377Q553 377 526 352ZM444 857T474 829T505 752Q505 734 503 725Q493 665 449 629T348 593Q298 593 268 621T237 698Q237 716 239 725Q249 785 293
821T394 857Q444 857 474 829ZM356 772T340 757T324 716Q324 699 335 689T363 678Q385 678 401 694T418 735Q418 752 407 762T379 772Q356 772 340 757Z" />
<glyph unicode="&#xe6;" glyph-name="ae" horiz-adv-x="1057" d="M937 571T989 515T1042 359Q1042 333 1035 287Q1029 260 1022 243H631Q629 201 646 184T697 167Q750 167 773 203H1008Q973 111 902 52T745 -7Q685 -7 647 15T594 77L580 0H359L373 77Q345 38 301
16T202 -7Q117 -7 65 50T13 208Q13 246 20 282Q36 371 78 436T179 536T304 571Q359 571 395 549T445 487L459 564H680L666 487Q693 527 740 549T847 571Q937 571 989 515ZM819 338T819 346Q819 371 798 384T744 397Q672 397 648 334H818Q819 338 819 346ZM411 291T411
306Q411 340 393 358T344 377Q308 377 281 352T245 282Q243 273 243 258Q243 224 261 206T310 187Q346 187 373 212T409 282Q411 291 411 306Z" />
<glyph unicode="&#xe7;" glyph-name="ccedilla" horiz-adv-x="610" d="M468 571T535 509T604 337H369Q362 381 325 381Q298 381 279 356T250 282Q246 254 246 245Q246 214 258 199T291 183Q329 183 349 227H584Q545 117 459 55T262 -7Q151 -7 85 56T18 231Q18
258 25 302Q40 384 86 445T202 538T354 571Q468 571 535 509ZM359 -27T393 -50T428 -123Q428 -140 426 -149Q414 -214 364 -242T254 -271H81L101 -158H251Q263 -158 271 -154T280 -142V-139Q280 -127 257 -127H172L196 7H324L318 -27Q359 -27 393 -50Z" />
<glyph unicode="&#xe8;" glyph-name="egrave" horiz-adv-x="614" d="M721 571T787 512T853 349Q853 320 847 287Q841 260 834 243H480Q479 236 479 223Q479 193 491 182T527 170Q564 170 585 203H820Q785 110 702 52T507 -7Q396 -7 331 54T266 225Q266 257 272
293Q287 378 335 441T454 537T609 571Q721 571 787 512ZM631 339T631 349Q631 373 616 385T578 397Q518 397 497 334H630Q631 339 631 349ZM496 750L470 602L228 696L257 860L496 750Z" />
<glyph unicode="&#xe9;" glyph-name="eacute" horiz-adv-x="614" d="M721 571T787 512T853 349Q853 320 847 287Q841 260 834 243H480Q479 236 479 223Q479 193 491 182T527 170Q564 170 585 203H820Q785 110 702 52T507 -7Q396 -7 331 54T266 225Q266 257 272
293Q287 378 335 441T454 537T609 571Q721 571 787 512ZM631 339T631 349Q631 373 616 385T578 397Q518 397 497 334H630Q631 339 631 349ZM487 696L211 602L237 750L516 860L487 696Z" />
<glyph unicode="&#xea;" glyph-name="ecircumflex" horiz-adv-x="615" d="M725 571T791 512T857 349Q857 320 851 287Q845 260 838 243H484Q483 236 483 223Q483 193 495 182T531 170Q568 170 589 203H824Q789 110 706 52T511 -7Q400 -7 335 54T270 225Q270 257
276 293Q291 378 339 441T458 537T613 571Q725 571 791 512ZM635 339T635 349Q635 373 620 385T582 397Q522 397 501 334H634Q635 339 635 349ZM363 680L182 592L207 736L388 821L538 736L513 592L363 680Z" />
<glyph unicode="&#xeb;" glyph-name="edieresis" horiz-adv-x="614" d="M471 571T537 512T603 349Q603 320 597 287Q591 260 584 243H230Q229 236 229 223Q229 193 241 182T277 170Q314 170 335 203H570Q535 110 452 52T257 -7Q146 -7 81 54T16 225Q16 257 22
293Q37 378 85 441T204 537T359 571Q471 571 537 512ZM381 339T381 349Q381 373 366 385T328 397Q268 397 247 334H380Q381 339 381 349ZM169 732T199 762T271 792Q304 792 324 773T345 722Q345 680 314 650T241 620Q210 620 190 639T169 689Q169 732 199 762ZM394
732T424 762T496 792Q529 792 549 773T570 722Q570 680 539 650T466 620Q435 620 415 639T394 689Q394 732 424 762Z" />
<glyph unicode="&#xec;" glyph-name="igrave" horiz-adv-x="322" d="M321 564L221 0H-1L99 564H321ZM383 750L357 602L115 696L144 860L383 750Z" />
<glyph unicode="&#xed;" glyph-name="iacute" horiz-adv-x="322" d="M321 564L221 0H-1L99 564H321ZM374 696L98 602L124 750L403 860L374 696Z" />
<glyph unicode="&#xee;" glyph-name="icircumflex" horiz-adv-x="321" d="M324 564L224 0H2L102 564H324ZM485 680L304 592L329 736L510 821L660 736L635 592L485 680Z" />
<glyph unicode="&#xef;" glyph-name="idieresis" horiz-adv-x="322" d="M327 564L227 0H5L105 564H327ZM312 732T342 762T414 792Q447 792 467 773T488 722Q488 680 457 650T384 620Q353 620 333 639T312 689Q312 732 342 762ZM537 732T567 762T639 792Q672 792
692 773T713 722Q713 680 682 650T609 620Q578 620 558 639T537 689Q537 732 567 762Z" />
<glyph unicode="&#xf0;" glyph-name="eth" horiz-adv-x="633" d="M598 600T614 535T631 403Q631 358 624 317Q606 215 554 142T428 32T272 -6Q198 -6 139 22T45 104T10 230Q10 252 15 284Q31 371 79 435T197 533T346 568Q379 568 424 560Q417 585 404 612L313
588L326 660L372 673Q348 713 323 740H516L534 716L604 735L591 663L569 657Q598 600 614 535ZM395 297T395 309Q395 344 378 360T336 377Q305 377 278 354T241 282Q239 273 239 258Q239 222 259 204T306 186Q335 186 359 209T392 282Q395 297 395 309Z" />
<glyph unicode="&#xf1;" glyph-name="ntilde" horiz-adv-x="697" d="M577 568T621 521T665 389Q665 360 659 327L601 0H380L433 299Q435 313 435 320Q435 351 418 368T369 386Q332 386 307 363T275 299V304L222 0H0L99 564H321L306 478Q340 518 387 543T495 568Q577
568 621 521ZM381 788T400 781T442 761Q461 751 471 747T493 742Q530 742 546 789H655Q622 696 575 655T463 614Q439 614 420 621T378 641Q375 643 364 648T344 656T327 659Q290 659 273 612H165Q198 705 245 746T357 788Q381 788 400 781Z" />
<glyph unicode="&#xf2;" glyph-name="ograve" horiz-adv-x="637" d="M445 571T504 542T595 458T628 328Q628 297 622 262Q607 180 559 119T438 26T283 -7Q205 -7 146 22T53 107T20 237Q20 268 26 302Q41 384 90 445T212 538T369 571Q445 571 504 542ZM310 379T285
355T251 282Q248 266 248 253Q248 219 264 202T307 185Q338 185 363 209T397 282Q400 297 400 311Q400 345 384 362T341 379Q310 379 285 355ZM516 750L490 602L248 696L277 860L516 750Z" />
<glyph unicode="&#xf3;" glyph-name="oacute" horiz-adv-x="637" d="M445 571T504 542T595 458T628 328Q628 297 622 262Q607 180 559 119T438 26T283 -7Q205 -7 146 22T53 107T20 237Q20 268 26 302Q41 384 90 445T212 538T369 571Q445 571 504 542ZM310 379T285
355T251 282Q248 266 248 253Q248 219 264 202T307 185Q338 185 363 209T397 282Q400 297 400 311Q400 345 384 362T341 379Q310 379 285 355ZM507 696L231 602L257 750L536 860L507 696Z" />
<glyph unicode="&#xf4;" glyph-name="ocircumflex" horiz-adv-x="637" d="M695 571T754 542T845 458T878 328Q878 297 872 262Q857 180 809 119T688 26T533 -7Q455 -7 396 22T303 107T270 237Q270 268 276 302Q291 384 340 445T462 538T619 571Q695 571 754 542ZM560
379T535 355T501 282Q498 266 498 253Q498 219 514 202T557 185Q588 185 613 209T647 282Q650 297 650 311Q650 345 634 362T591 379Q560 379 535 355ZM373 680L192 592L217 736L398 821L548 736L523 592L373 680Z" />
<glyph unicode="&#xf5;" glyph-name="otilde" horiz-adv-x="637" d="M452 571T511 542T602 458T635 328Q635 297 629 262Q614 180 566 119T445 26T290 -7Q212 -7 153 22T60 107T27 237Q27 268 33 302Q48 384 97 445T219 538T376 571Q452 571 511 542ZM317 379T292
355T258 282Q255 266 255 253Q255 219 271 202T314 185Q345 185 370 209T404 282Q407 297 407 311Q407 345 391 362T348 379Q317 379 292 355ZM361 788T380 781T422 761Q441 751 451 747T473 742Q510 742 526 789H635Q602 696 555 655T443 614Q419 614 400 621T358
641Q355 643 344 648T324 656T307 659Q270 659 253 612H145Q178 705 225 746T337 788Q361 788 380 781Z" />
<glyph unicode="&#xf6;" glyph-name="odieresis" horiz-adv-x="637" d="M451 571T510 542T601 458T634 328Q634 297 628 262Q613 180 565 119T444 26T289 -7Q211 -7 152 22T59 107T26 237Q26 268 32 302Q47 384 96 445T218 538T375 571Q451 571 510 542ZM316 379T291
355T257 282Q254 266 254 253Q254 219 270 202T313 185Q344 185 369 209T403 282Q406 297 406 311Q406 345 390 362T347 379Q316 379 291 355ZM189 732T219 762T291 792Q324 792 344 773T365 722Q365 680 334 650T261 620Q230 620 210 639T189 689Q189 732 219
762ZM414 732T444 762T516 792Q549 792 569 773T590 722Q590 680 559 650T486 620Q455 620 435 639T414 689Q414 732 444 762Z" />
<glyph unicode="&#xf7;" glyph-name="divide" horiz-adv-x="551" d="M444 681L407 469H187L224 681H444ZM549 441L513 240H2L38 441H549ZM361 212L324 0H104L141 212H361Z" />
<glyph unicode="&#xf8;" glyph-name="oslash" horiz-adv-x="621" d="M574 474Q617 412 617 326Q617 297 611 262Q596 180 548 119T427 26T272 -7Q170 -7 101 42L55 0H-48L52 91Q9 153 9 238Q9 268 15 302Q30 384 79 445T201 538T358 571Q457 571 525 523L570 564H673L574
474ZM237 260L360 372Q347 379 330 379Q299 379 274 355T240 282L237 260ZM389 304L266 192Q277 185 296 185Q327 185 352 209T386 282L389 304Z" />
<glyph unicode="&#xf9;" glyph-name="ugrave" horiz-adv-x="697" d="M692 564L593 0H371L386 86Q352 46 305 21T197 -4Q115 -4 71 43T27 175Q27 204 33 237L91 564H312L259 265Q257 251 257 244Q257 213 274 196T323 178Q360 178 385 201T417 265V260L470 564H692ZM544
750L518 602L276 696L305 860L544 750Z" />
<glyph unicode="&#xfa;" glyph-name="uacute" horiz-adv-x="697" d="M692 564L593 0H371L386 86Q352 46 305 21T197 -4Q115 -4 71 43T27 175Q27 204 33 237L91 564H312L259 265Q257 251 257 244Q257 213 274 196T323 178Q360 178 385 201T417 265V260L470 564H692ZM535
696L259 602L285 750L564 860L535 696Z" />
<glyph unicode="&#xfb;" glyph-name="ucircumflex" horiz-adv-x="697" d="M695 564L596 0H374L389 86Q355 46 308 21T200 -4Q118 -4 74 43T30 175Q30 204 36 237L94 564H315L262 265Q260 251 260 244Q260 213 277 196T326 178Q363 178 388 201T420 265V260L473
564H695ZM410 680L229 592L254 736L435 821L585 736L560 592L410 680Z" />
<glyph unicode="&#xfc;" glyph-name="udieresis" horiz-adv-x="697" d="M698 564L599 0H377L392 86Q358 46 311 21T203 -4Q121 -4 77 43T33 175Q33 204 39 237L97 564H318L265 265Q263 251 263 244Q263 213 280 196T329 178Q366 178 391 201T423 265V260L476 564H698ZM217
732T247 762T319 792Q352 792 372 773T393 722Q393 680 362 650T289 620Q258 620 238 639T217 689Q217 732 247 762ZM442 732T472 762T544 792Q577 792 597 773T618 722Q618 680 587 650T514 620Q483 620 463 639T442 689Q442 732 472 762Z" />
<glyph unicode="&#xfd;" glyph-name="yacute" horiz-adv-x="677" d="M525 564L580 278L730 564H975L466 -270H223L418 28L278 564H525ZM570 696L294 602L320 750L599 860L570 696Z" />
<glyph unicode="&#xfe;" glyph-name="thorn" horiz-adv-x="679" d="M554 568T608 506T663 341Q663 315 658 278Q644 186 602 122T502 26T378 -6Q326 -6 290 10T231 62L173 -270H-49L129 740H351L311 514Q343 543 378 555T460 568Q554 568 608 506ZM367 187T395
208T433 278Q435 294 435 301Q435 339 415 357T369 376Q338 376 309 354T270 282Q268 266 268 259Q268 222 288 205T336 187Q367 187 395 208Z" />
<glyph unicode="&#xff;" glyph-name="ydieresis" horiz-adv-x="677" d="M275 564L330 278L480 564H725L216 -270H-27L168 28L28 564H275ZM202 732T232 762T304 792Q337 792 357 773T378 722Q378 680 347 650T274 620Q243 620 223 639T202 689Q202 732 232 762ZM427
732T457 762T529 792Q562 792 582 773T603 722Q603 680 572 650T499 620Q468 620 448 639T427 689Q427 732 457 762Z" />
<glyph unicode="&#x2013;" glyph-name="endash" horiz-adv-x="683" d="M644 433L612 250H39L71 433H644Z" />
<glyph unicode="&#x2014;" glyph-name="emdash" horiz-adv-x="936" d="M897 433L865 250H39L71 433H897Z" />
<glyph unicode="&#x2018;" glyph-name="quoteleft" horiz-adv-x="281" d="M41 607T41 640Q41 668 46 700Q60 777 110 826T242 876L229 798Q174 798 160 723L159 712H231L205 565H49Q41 607 41 640Z" />
<glyph unicode="&#x2019;" glyph-name="quoteright" horiz-adv-x="281" d="M240 842T240 806Q240 775 235 742Q221 664 171 615T40 565L54 644Q80 644 97 662T122 718L124 730H52L77 876H233Q240 842 240 806Z" />
<glyph unicode="&#x201a;" glyph-name="quotesinglbase" horiz-adv-x="276" d="M478 87T478 30Q478 -30 455 -85T383 -175T260 -210L274 -132Q302 -132 317 -120T339 -72L341 -61H254L288 131H459Q478 87 478 30Z" />
<glyph unicode="&#x201c;" glyph-name="quotedblleft" horiz-adv-x="506" d="M41 607T41 640Q41 668 46 700Q60 777 110 826T242 876L229 798Q174 798 160 723L159 712H231L205 565H49Q41 607 41 640ZM266 599T266 636Q266 667 271 700Q285 777 335 826T466 876L453
798Q398 798 384 723L383 712H455L429 565H273Q266 599 266 636Z" />
<glyph unicode="&#x201d;" glyph-name="quotedblright" horiz-adv-x="506" d="M240 842T240 806Q240 775 235 742Q221 664 171 615T40 565L54 644Q80 644 97 662T122 718L124 730H52L77 876H233Q240 842 240 806ZM465 836T465 802Q465 774 460 742Q446 664 396
615T264 565L278 644Q333 644 346 718L348 730H276L301 876H457Q465 836 465 802Z" />
<glyph unicode="&#x201e;" glyph-name="quotedblbase" horiz-adv-x="506" d="M197 112T197 76Q197 45 192 12Q178 -66 128 -115T-3 -165L11 -86Q37 -86 54 -68T79 -12L81 0H9L34 146H190Q197 112 197 76ZM422 106T422 72Q422 44 417 12Q403 -66 353 -115T221 -165L235
-86Q290 -86 303 -12L305 0H233L258 146H414Q422 106 422 72Z" />
<glyph unicode="&#x2022;" glyph-name="bullet" horiz-adv-x="536" d="M108 380T137 418T209 479T298 502Q361 502 400 464T439 365Q439 350 436 333Q428 287 399 249T328 188T238 166Q176 166 137 204T97 302Q97 317 100 333Q108 380 137 418Z" />
<glyph unicode="&#x2039;" glyph-name="guilsinglleft" horiz-adv-x="373" d="M91 120L45 295L153 470H354L244 295L292 120H91Z" />
<glyph unicode="&#x203a;" glyph-name="guilsinglright" horiz-adv-x="373" d="M130 295L81 470H283L328 295L221 120H19L130 295Z" />
</font>
</defs>
</svg>
